<?xml version="1.0" standalone="no"?>
<!DOCTYPE svg PUBLIC "-//W3C//DTD SVG 1.1//EN" "http://www.w3.org/Graphics/SVG/1.1/DTD/svg11.dtd" >
<svg xmlns="http://www.w3.org/2000/svg">
<metadata>Generated by IcoMoon</metadata>
<defs>
<font id="icomoon" horiz-adv-x="1024">
<font-face units-per-em="1024" ascent="896" descent="-128" />
<missing-glyph horiz-adv-x="1024" />
<glyph unicode="&#x20;" horiz-adv-x="0" d="" />
<glyph unicode="&#xe600;" glyph-name="twitter" d="M672.279 770.119c71.117 1.255 108.963-24.658 145.115-57.615 30.665 2.648 70.53 19.796 94.027 31.701 7.619 4.178 15.224 8.355 22.841 12.506-13.42-36.263-31.62-64.633-59.553-86.178-6.211-4.778-12.37-11.222-20.165-14.28v-0.437c39.824 0.41 72.701 18.377 103.911 28.124v-0.464c-16.41-26.050-38.583-52.482-62.256-71.431-9.558-7.591-19.115-15.183-28.671-22.773 0.519-42.16-0.601-82.408-8.507-117.851-45.846-206.048-167.315-345.937-359.602-405.873-69.042-21.516-180.627-30.335-259.731-10.704-39.239 9.75-74.68 20.726-107.939 35.253-18.459 8.082-35.58 16.847-51.936 26.813-5.379 3.278-10.758 6.554-16.11 9.804 17.83-0.52 38.706-5.435 58.652-2.212 18.049 2.921 35.744 2.129 52.386 5.788 41.547 9.121 78.409 21.162 110.165 39.758 15.401 8.983 38.775 19.578 49.723 32.575-20.63-0.355-39.32 4.424-54.639 9.831-59.391 20.97-93.959 59.525-116.432 117.414 17.995-1.939 69.821-6.634 81.945 3.576-22.664 1.256-44.426 14.364-60.018 24.111-47.758 29.901-86.723 80.034-86.423 157.145 6.281-2.949 12.547-5.925 18.814-8.902 12-5.079 24.192-7.782 38.501-10.704 6.062-1.256 18.145-4.833 25.094-2.239h-0.901c-9.229 10.73-24.302 17.913-33.586 29.436-30.65 38.118-59.363 96.744-41.19 166.565 4.601 17.694 11.904 33.34 19.702 47.758 0.287-0.137 0.6-0.301 0.887-0.437 3.564-7.481 11.523-12.943 16.561-19.196 15.673-19.414 34.979-36.863 54.639-52.235 67.035-52.428 127.408-84.648 224.371-108.486 24.576-6.061 53.028-10.703 82.395-10.73-8.246 24.029-5.61 62.913 0.888 86.177 16.355 58.488 51.826 100.621 103.911 123.23 12.439 5.379 26.254 9.339 40.74 12.479 7.468 0.899 14.922 1.8 22.391 2.701" />
<glyph unicode="&#xe601;" glyph-name="facebook" d="M870.4 844.8h-716.8c-56.32 0-102.4-46.080-102.4-102.4v-716.8c0-56.371 46.080-102.4 102.4-102.4h358.4v358.4h-102.4v126.72h102.4v104.96c0 110.797 62.054 188.621 192.819 188.621l92.314-0.102v-133.376h-61.286c-50.893 0-70.246-38.195-70.246-73.626v-86.528h131.482l-29.082-126.669h-102.4v-358.4h204.8c56.32 0 102.4 46.029 102.4 102.4v716.8c0 56.32-46.080 102.4-102.4 102.4z" />
<glyph unicode="&#xe602;" glyph-name="weibo" d="M-56.57 1044.89v0 0zM743.314 516.4q-16.558 3.318-21.501 9.921t-1.659 12.145l3.318 5.508q1.094 1.094 2.224 3.318t4.414 9.391 4.978 14.334 2.753 17.652-0.564 19.877-6.638 20.407-13.805 19.877q-15.463 15.463-40.284 19.877t-49.641 0.564-46.885-9.921-36.4-11.581l-14.334-6.638q-11.050-3.318-18.218-4.414t-11.050 0.564-6.073 3.318-1.659 7.732 1.094 10.485 2.753 13.805 3.318 14.899q0 13.239-1.659 24.819t-7.167 25.914-15.994 23.161-26.48 14.334-41.379 3.318-57.372-13.239q-38.624-13.239-78.342-39.154t-68.951-54.052-53.523-54.618-37.53-43.038l-12.145-17.652q-36.4-47.451-54.052-94.901t-16.558-71.707v-23.161q6.638-52.958 32.551-94.901t61.785-67.857 84.415-44.132 93.242-26.48 94.337-11.581q81.662-6.638 169.36 12.675t163.289 66.763 106.481 113.649q18.747 38.624 19.313 72.836t-11.581 55.712-31.457 38.060-36.4 24.29-30.327 9.921zM406.816 173.265q-119.156-5.508-202.443 46.356t-83.285 131.301q0 78.342 82.756 135.15t203.007 62.35 203.007-39.718 82.756-123.569q0-79.438-84.415-142.882t-201.348-68.951zM374.83 478.906q-31.986-3.318-57.372-14.899t-39.718-26.48-24.29-31.986-13.805-33.646-4.978-30.327-1.094-21.501l1.094-8.827v-4.414q0-3.318 2.224-13.239t6.073-18.218 12.675-18.218 20.972-16.558q72.836-35.306 135.714-21.501t101.503 63.443q15.463 18.747 20.407 46.356t-2.224 55.712-24.819 51.299-52.394 35.871-80.003 7.167zM335.11 270.355q-6.638-1.094-12.675-0.564t-11.050 2.224-9.921 3.847-8.261 6.073-6.073 7.732-4.414 8.827-1.659 10.485q0 12.145 6.638 23.725t18.218 19.877 25.914 9.391q9.921 1.094 19.313-0.564t15.994-5.508 11.581-8.827 7.167-11.581 2.224-14.334q0-12.145-7.167-23.161t-19.313-18.747-26.48-8.827zM428.882 349.793q-7.732-5.508-15.994-4.978t-11.581 7.167l-2.224 4.414q-1.094 2.224-1.094 4.414v4.414q0 3.318 1.094 5.508l2.224 4.414q1.094 2.224 3.318 3.318l3.318 4.414q8.827 6.638 17.088 5.508t11.581-8.827q3.318-4.414 2.753-9.921t-3.318-10.485-7.167-9.391zM820.562 580.409q6.638 0 12.145 3.318t8.827 8.261 4.414 10.485q1.094 1.094 1.094 3.318 13.239 125.794-88.265 143.446-29.798 5.508-55.182 1.094-7.732 0-13.239-3.847t-9.391-9.921-3.847-12.675q0-11.050 7.732-18.747t18.747-7.732q86.075 19.877 92.677-55.182 2.224-18.747-2.224-35.306 0-11.050 7.732-18.747t18.747-7.732zM801.815 891.522q-48.545 11.050-130.207-4.414-1.094 0-2.224-1.094l-1.094-2.224-1.094-1.094q-12.145-3.318-19.877-13.805t-7.732-22.63q0-16.558 11.050-27.574t26.48-11.050h3.318q1.094 0 4.978 1.094t8.261 1.659 9.391 2.224 8.827 3.318 14.899 1.659 27.044-1.659 35.306-8.261 38.624-16.558 38.624-27.574 33.646-40.813q28.704-65.104 11.050-125.794 0-1.094-0.564-2.224t-1.659-5.508-2.224-8.261-2.224-9.921-1.094-10.485q0-9.921 5.508-16.558t13.805-9.391 19.313-2.753q30.893 0 36.4 37.53 13.239 43.038 14.899 82.192t-5.508 68.951-21.501 55.712-33.116 44.132-41.943 33.116-44.697 23.725-44.697 14.334z" />
<glyph unicode="&#xe604;" glyph-name="rss" d="M329.143 224q0-45.714-32-77.714t-77.714-32-77.714 32-32 77.714 32 77.714 77.714 32 77.714-32 32-77.714zM621.714 153.714q1.143-16-9.714-27.429-10.286-12-26.857-12h-77.143q-14.286 0-24.571 9.429t-11.429 23.714q-12.571 130.857-105.429 223.714t-223.714 105.429q-14.286 1.143-23.714 11.429t-9.429 24.571v77.143q0 16.571 12 26.857 9.714 9.714 24.571 9.714h2.857q91.429-7.429 174.857-46t148-103.714q65.143-64.571 103.714-148t46-174.857zM914.286 152.571q1.143-15.429-10.286-26.857-10.286-11.429-26.286-11.429h-81.714q-14.857 0-25.429 10t-11.143 24.286q-6.857 122.857-57.714 233.429t-132.286 192-192 132.286-233.429 58.286q-14.286 0.571-24.286 11.143t-10 24.857v81.714q0 16 11.429 26.286 10.286 10.286 25.143 10.286h1.714q149.714-7.429 286.571-68.571t243.143-168q106.857-106.286 168-243.143t68.571-286.571z" />
<glyph unicode="&#xe605;" glyph-name="email" d="M512.576 305.76l-447.744 265.6v-416.928c0-42.592 37.6-77.12 83.936-77.12h727.648c46.336 0 83.936 34.528 83.936 77.12v416.928l-447.776-265.6zM148.736 716.96c-43.328 0-78.944-30.144-83.424-68.864-0.32-2.72-0.512-5.408-0.512-8.256l447.744-265.568 447.776 265.568c0 2.912-0.16 5.792-0.512 8.608-4.64 38.528-40.256 68.544-83.424 68.544l-727.648-0.032z" />
<glyph unicode="&#xe606;" glyph-name="github" d="M64 384c0-195.602 125.356-361.926 300.113-423.017 23.545-5.983 19.887 10.902 19.887 22.25v77.66c-135.882-15.9-141.326 74.055-150.5 89.106-18.5 31.5-62 39.5-49 54.5 31 16 62.5-4 99-58 26.456-39.141 77.866-32.574 104.158-25.996 5.745 23.5 17.979 44.455 34.695 60.859-140.579 25.029-199.353 110.968-199.353 213.138 0 49.447 16.322 95.094 48.465 131.873-20.323 60.699 1.956 112.437 4.872 120.212 58.121 5.284 118.551-41.578 123.212-45.27 33.114 8.85 70.792 13.685 112.951 13.685 42.424 0 80.31-4.896 113.575-13.853 11.351 8.634 67.385 48.799 121.425 43.887 2.882-7.686 24.685-58.326 5.558-118.117 32.458-36.873 48.942-82.726 48.942-132.417 0-102.374-59.010-188.453-200.197-213.286 23.578-23.217 38.197-55.509 38.197-91.222v-112.645c0.752-8.973 0-18.012 15.086-18.012 177.258 59.703 304.914 227.276 304.914 424.665 0 247.424-200.576 448-448 448s-448-200.576-448-448z" />
<glyph unicode="&#xe607;" glyph-name="zhihu" d="M351.791 429.531h192.945c0 45.367-21.387 71.939-21.387 71.939h-167.452c3.978 82.183 7.542 187.659 8.817 226.835h159.283c0 0-0.864 67.402-18.578 67.402s-279.98 0-279.98 0 16.851 88.141 39.318 127.054c0 0-83.605 4.511-112.122-106.962s-71.292-178.876-75.828-191.189c-4.536-12.313 24.628-5.833 36.941 0s68.051 25.924 84.253 103.696h86.571c1.166-49.287 4.597-200.336 3.515-226.835h-178.227c-25.276-18.147-33.702-71.939-33.702-71.939h203.709c-8.498-56.255-23.417-128.764-44.275-167.21-33.053-60.922-50.552-116.658-169.802-212.577 0 0-19.443-14.258 40.83-9.074s117.306 20.739 156.84 99.807c20.553 41.107 41.805 93.251 58.387 146.138l-0.055-0.185 167.856-193.264c0 0 22.036 51.848 5.833 108.881l-124.435 139.342-42.124-31.158-0.045-0.151c11.699 41.020 20.112 81.575 22.727 116.858 0.062 0.849 0.126 1.716 0.188 2.592zM584.919 809.966v-668.84h70.319l28.807-80.513 121.876 80.513h153.6v668.84h-374.602zM887.15 213.065h-79.837l-99.579-65.782-23.537 65.782h-24.855v522.261h227.807v-522.261z" />
<glyph unicode="&#xe608;" glyph-name="heart" d="M512-42.857q-14.848 0-25.161 10.277l-356.571 343.991q-5.705 4.571-15.726 14.848t-31.707 37.413-38.839 55.698-30.574 69.157-13.422 78.848q0 125.696 72.558 196.571t200.558 70.839q35.438 0 72.302-12.288t68.571-33.134 54.565-39.131 43.447-38.839q20.553 20.553 43.447 38.839t54.565 39.131 68.571 33.134 72.302 12.288q128 0 200.558-70.839t72.558-196.571q0-126.281-130.853-257.134l-355.986-342.857q-10.277-10.277-25.161-10.277z" />
<glyph unicode="&#xe609;" glyph-name="google" d="M637.828 928.451h-235.35c-31.203 0-64.666-3.63-100.376-10.901-36.050-8.473-70.821-26.435-104.26-53.956-48.765-47.096-73.109-99.483-73.109-157.312 0-47.806 17.211-89.697 51.628-125.715 32.857-38.63 80.597-58.35 143.271-59.123 11.806 0 24.445 0.773 37.796 2.288-2.19-6.185-4.608-12.86-7.196-20.201-2.941-6.89-4.394-15.603-4.394-25.99 0-17.272 3.844-32.107 11.59-44.418 6.644-12.7 14.199-24.613 22.689-35.789-27.467-0.758-61.946-4.217-103.506-10.305-41.961-7.257-82.007-21.816-120.083-43.552-33.96-20.241-57.416-43.743-70.33-70.452-13.413-26.741-20.058-51.048-20.058-72.796 0-44.692 20.547-83.069 61.534-115.192 40.665-34.333 102.2-51.918 184.641-52.683 98.47 1.547 173.861 25.050 226.026 70.605 50.356 44.073 75.573 94.561 75.573 151.601-0.781 40.159-9.952 72.672-27.56 97.575-18.694 24.504-40.45 46.804-65.246 67.145l-39.94 32.713c-5.764 5.733-11.712 12.438-17.806 20.109-7.196 8.022-10.794 18.129-10.794 30.445 0 12.631 3.514 23.702 10.518 33.271 5.956 9.201 12.417 17.431 19.453 24.696 12.25 10.71 23.794 21.265 34.687 31.562 9.812 10.336 19.107 21.627 27.85 33.868 17.913 25.279 27.222 58.955 27.896 101.043 0 22.967-2.574 43.076-7.748 60.279-6.307 17.254-13.519 32.145-21.665 44.775-8.498 13.359-17.17 24.699-26.028 33.885-9.231 8.811-17.516 15.494-24.933 20.079h72.549l72.679 42.443zM508.834 286.629c19.461-22.184 29.198-48.184 29.198-78.069 0-36.761-14.231-66.786-42.739-90.166-29.185-23.724-71.548-35.972-127.011-36.761-61.84 0.789-110.521 14.567-146.159 41.353-37.472 26.787-56.153 60.855-56.153 102.202 0 21.036 4.257 39.034 12.916 53.977 7.471 14.178 16.642 26.036 27.521 35.598 11.269 9.186 22.316 16.276 33.194 21.244 10.847 4.594 19.252 8.054 25.247 10.358 25.493 7.663 50.442 13.198 74.778 16.657 24.728 2.282 40.107 3.017 46.093 2.282 10.112 0 18.901-0.36 26.427-1.134 43.851-30.658 76.057-56.495 96.688-77.541zM470.62 632.952c-2.835-15.731-9.232-31.065-19.216-46.009-20.646-21.098-46.453-32.251-77.442-33.407-24.528 0-46.315 7.471-65.378 22.468-19.115 14.953-34.625 33.163-46.712 54.615-24.92 46.055-37.328 90.304-37.328 132.859-0.819 32.221 7.717 61.365 25.546 87.449 21.16 24.918 47.663 37.771 79.562 38.544 24.093-0.773 45.412-7.893 63.985-21.267 18.159-14.176 32.802-32.611 43.957-55.218 23.731-47.142 35.605-93.956 35.605-140.33 0-10.772-0.881-23.957-2.58-39.703zM833.195 799.908v123.513h-59.834v-123.513h-123.467v-59.834h123.467v-123.467h59.834v123.467h123.481v59.834z" />
<glyph unicode="&#xe60a;" glyph-name="right" d="M577.193 396.195l-318.048-318.048c-29.458-29.458-29.46-77.223-0.002-106.682 29.4-29.4 77.222-29.46 106.682 0l423.571 423.658-427.312 427.314c-28.942 28.942-76.38 29.116-105.532-0.036-29.356-29.356-29.169-76.399-0.036-105.532l320.677-320.676z" />
<glyph unicode="&#xe60b;" glyph-name="left" d="M767.482 716.872c29.134 29.131 29.32 76.176-0.036 105.532-29.152 29.152-76.589 28.978-105.532 0.036l-427.312-427.314 1.904-1.903-0.044-0.044 421.711-421.711c29.46-29.46 77.282-29.4 106.682 0 29.458 29.458 29.456 77.224-0.002 106.682l-318.048 318.048 320.677 320.676z" />
<glyph unicode="&#xe60c;" glyph-name="up" d="M120.081 425.796l378.658 395.895 378.487-395.895c10.957-11.469 28.826-11.469 39.817 0 11.025 11.537 11.025 30.157 0 41.711l-398.421 416.649c-11.042 11.554-28.826 11.554-39.817 0l-398.575-416.631c-10.991-11.571-10.991-30.191 0-41.711 11.076-11.486 28.86-11.486 39.851-0.017M120.081 48.060l378.658 395.93 378.487-395.93c10.957-11.452 28.826-11.452 39.817 0 11.025 11.571 11.025 30.157 0 41.728l-398.421 416.649c-11.042 11.554-28.826 11.554-39.817 0l-398.575-416.631c-10.991-11.588-10.991-30.174 0-41.728 11.076-11.452 28.86-11.452 39.851-0.017" />
<glyph unicode="&#xe60d;" glyph-name="linkedin" d="M743.838 523.267c-87.422 0-146.035-43.981-170.026-85.655h-2.404v72.467h-172.343v-530.394h179.525v262.396c0 69.17 14.36 136.186 107.86 136.186 92.143 0 93.369-79.127 93.369-140.646v-257.936h179.567v290.926c0.001 142.802-33.589 252.655-215.546 252.655zM101.006-20.272h149.267v543.819h-149.267v-543.819zM175.636 813.568c-61.827 0-111.953-48.679-111.953-108.755 0-60.078 50.126-108.777 111.953-108.777 61.829 0 111.955 48.699 111.955 108.777 0 60.076-50.126 108.755-111.955 108.755z" />
<glyph unicode="&#xe60e;" glyph-name="search" d="M941.427-2.595c-16.080-16.011-69.713-18.383-85.793-2.378l-223.925 228.529c61.748 50.088 70.796 148.074 70.796 199.627 0 148.759-109.305 260.411-257.868 260.411-148.569 0-256.612-109.908-256.612-258.673 0-148.753 102.096-261.73 250.665-261.73 30.76 0 44.76-0.038 72.294 9.467l0.387-1.484c7 3.545 77.436 12.099 77.436-60.962 0-20.456-15.624-41.425-34.933-48.178-32.669-11.42-75.432-16.937-108.601-16.937-211.592 0-381.181 169.367-381.181 380.807 0 211.37 169.589 382.791 381.181 382.791 211.668 0 381.181-171.421 381.181-382.791 0-65.813-12.98-127.682-40.202-179.177l157.154-159.19c16.018-16.011 14.034-74.196-1.978-90.131v0zM941.427-2.595" />
<glyph unicode="&#xe60f;" glyph-name="close" d="M734.668 234.618l-141.21 161.382 141.21 161.382c24.014 24.012 24.014 62.926 0 86.886s-62.924 23.962-86.886 0l-135.782-155.188-135.73 155.136c-24.012 24.014-62.926 24.014-86.886 0s-23.962-62.926 0-86.886l141.158-161.332-141.21-161.382c-23.962-24.014-23.962-62.822 0-86.784 24.012-24.014 62.926-24.014 86.886 0l135.782 155.086 135.73-155.086c24.014-24.014 62.924-24.014 86.886 0s24.014 62.77 0.052 86.784z" />
<glyph unicode="&#xe610;" glyph-name="douban" d="M370.632 564.818h279.276v-102.313h-279.276v102.313zM757.632 932.362h-495.37c-110.894 0-200.822-90.373-200.822-201.861v-497.879c0-111.478 89.933-201.83 200.822-201.83h495.365c110.92 0 200.842 90.348 200.842 201.83v497.879c0 111.483-89.933 201.861-200.837 201.861v0zM272.374 727.68h475.197v-53.53h-475.197v53.53zM313.631 409.083v209.203h392.617v-209.203h-392.617zM761.037 235.5h-502.098v52.92h146.304c-13.394 28.145-30.868 58.424-52.521 90.911l52.521 20.756c20.849-30.874 39.455-68.111 55.941-111.718h99.415c19.717 33.674 36.956 70.948 51.814 111.718l57.073-20.756c-14.884-34.442-31.032-64.742-48.113-90.911h139.689v-52.92h-0.026z" />
<glyph unicode="&#xe611;" glyph-name="iconinstagram2" d="M720.989 970.386h-421.236c-155.828 0-282.148-126.321-282.148-282.148v-421.235c0-155.828 126.321-282.148 282.148-282.148h421.235c155.828 0 282.148 126.321 282.148 282.148v421.234c0.001 155.828-126.321 282.149-282.147 282.149zM511.934 225.236c-140.701 0-254.764 114.063-254.764 254.761 0 140.702 114.062 254.764 254.764 254.764 140.7 0 254.761-114.061 254.761-254.764 0-140.699-114.062-254.761-254.761-254.761zM773.321 683.605c-32.917 0-59.602 26.685-59.602 59.602s26.687 59.602 59.602 59.602 59.602-26.685 59.602-59.602-26.685-59.602-59.602-59.602zM511.934 643.357c-90.219 0-163.357-73.137-163.357-163.357 0-90.218 73.137-163.356 163.357-163.356 90.218 0 163.356 73.137 163.356 163.356s-73.135 163.357-163.356 163.357z" />
<glyph unicode="&#xe69f;" glyph-name="tumblr" d="M678.466 134.69c-29.040 0-54.753 6.844-77.301 20.389-16.982 10.058-32.606 27.473-38.826 44.247-6.268 16.775-5.501 51.011-5.501 110.418v262.604h235.532v182.729h-235.484v236.923h-144.91c-6.476-52.898-18.39-96.362-35.676-130.487-17.472-34.585-40.558-63.811-68.384-87.667l-0.377-0.316c-28.464-24.386-74.854-43.16-114.879-56.176v-145.006h138.386v-359.078c0-46.918 4.877-82.626 14.632-107.268 9.818-24.578 27.281-47.925 52.626-69.849 25.218-21.732 55.761-38.698 91.549-50.564 35.788-11.737 63.244-17.606 109.842-17.606 41.017 0 79.171 4.126 114.496 12.441 35.292 8.331 74.742 22.851 118.253 43.352v161.525c-51.091-33.709-102.374-50.612-153.977-50.612z" />
<glyph unicode="&#xe856;" glyph-name="pocket" d="M938.667 480c0-235.641-191.025-426.667-426.667-426.667v0c-235.641 0-426.667 191.025-426.667 426.667v0 320c0 58.91 47.756 106.667 106.667 106.667v0h640c58.91 0 106.667-47.756 106.667-106.667v0-320M677.547 640l-165.547-165.547-165.547 165.973c-11.531 11.669-27.535 18.895-45.227 18.895s-33.696-7.227-45.221-18.889l-0.006-0.006c-11.669-11.531-18.895-27.535-18.895-45.227s7.227-33.696 18.889-45.221l0.006-0.006 210.347-211.627c24.32-24.747 65.707-24.747 90.88 0l210.773 211.2c25.173 25.173 25.173 65.707 0 90.453-11.531 11.669-27.535 18.895-45.227 18.895s-33.696-7.227-45.221-18.889l-0.006-0.006z" />
<glyph unicode="&#xe900;" glyph-name="bilibili" d="M360.896 712.032l-90.912 88.096s-14.208 17.472 9.824 37.248c24.16 19.648 25.376 10.912 33.504 5.472s135.2-130.816 135.2-130.816h-87.616zM662.848 708.768l90.912 88.096s14.208 17.472-9.824 37.248c-24.032 19.648-25.376 10.912-33.504 5.472s-135.2-130.816-135.2-130.816h87.616zM1004 545.664c-3.264 137.984-123.168 164.192-123.168 164.192s-614.336 4.96-742.496 0c-128.16-36.16-118.336-164.192-118.336-164.192s1.696-274.272-0.128-413.12c13.824-138.848 120.864-160.928 120.864-160.928s42.72-0.864 73.92-0.864c3.264-8.992 5.696-52.544 54.24-52.544 48.416 0 54.24 52.544 54.24 52.544s354.88 1.696 384.352 1.696c1.696-14.816 8.992-54.976 57.536-54.24 48.416 0.864 51.712 57.536 51.712 57.536s16.384 1.696 65.664 0c114.944 21.376 121.6 156.064 121.6 156.064s-1.568 275.872 0 413.856zM905.088 106.432c0-21.728-17.248-39.456-38.464-39.456h-699.424c-21.248 0-38.464 17.6-38.464 39.456v463.232c0 21.728 17.248 39.456 38.464 39.456h699.424c21.248 0 38.464-17.6 38.464-39.456v-463.232zM202.4 438.848l205.344 39.456 15.52-77.184-203.648-39.456zM841.376 438.848l-205.344 39.456-15.648-77.184 203.776-39.456zM423.296 247.456s45.152-81.312 95.264 26.336c48.416-105.088 101.824-27.904 101.824-27.904l30.336-19.776s-56.672-91.136-131.424-22.208c-63.232-68.928-129.728 21.952-129.728 21.952l33.728 21.6z" />
<glyph unicode="&#xe901;" glyph-name="gitlab" d="M59.429 474.285l452.571-580-496 360c-13.714 10.286-19.429 28-14.286 44l57.714 176zM323.429 474.285h377.143l-188.571-580zM210.286 824l113.143-349.714h-264l113.143 349.714c6.286 17.714 31.429 17.714 37.714 0zM964.571 474.285l57.714-176c5.143-16-0.571-33.714-14.286-44l-496-360 452.571 580zM964.571 474.285h-264l113.143 349.714c6.286 17.714 31.429 17.714 37.714 0z" />
<glyph unicode="&#xe902;" glyph-name="stack-overflow" horiz-adv-x="878" d="M736.571-54.857h-638.857v274.286h-91.429v-365.714h821.714v365.714h-91.429v-274.286zM198.286 244.571l18.857 89.714 447.429-94.286-18.857-89.143zM257.143 458.285l38.286 83.429 414.286-193.714-38.286-82.857zM372 661.714l58.286 70.286 350.857-293.143-58.286-70.286zM598.857 877.714l272.571-366.286-73.143-54.857-272.571 366.286zM188.571 37.143v90.857h457.143v-90.857h-457.143z" />
<glyph unicode="&#xe903;" glyph-name="pencil" d="M965.536 654.656l-10.048-10.048-183.232 183.328 10.016 10.016c0 0 43.872 58.016 106.272 58.016 27.488 0 58.624-11.296 91.168-43.84 107.328-107.328-14.176-197.472-14.176-197.472zM895.328 584.416l-623.968-624.192-271.36-88.224 88.192 271.52v0.096h0.064l623.872 624.16 8.064-8.096zM88.32-39.648l135.584 39.008-92.608 98.624-42.976-137.632z" />
<glyph unicode="&#xe904;" glyph-name="format_quote" d="M598 170l84 172h-128v256h256v-256l-84-172h-128zM256 170l86 172h-128v256h256v-256l-86-172h-128z" />
<glyph unicode="&#xe905;" glyph-name="fire, danger, flame, hot" d="M704 608c-1.984-85.6-66.24-157.888-66.24-157.888 0 159.232-125.76 285.888-125.76 285.888s-1.696-94.784-65.376-190.336c-63.68 222.944-254.784 350.336-254.784 350.336 95.552-350.336-31.84-477.76-31.84-732.544 0-149.472 126.528-291.456 320-291.456 286.624 0 342.048 105.216 371.68 223.776 40.832 163.232-20.32 352.992-147.68 512.224zM789.632 111.328c-20.576-82.208-43.808-175.328-309.632-175.328-160.256 0-256 115.648-256 227.456 0 85.632 15.616 155.936 32.128 230.368 20.992 94.368 42.496 190.976 33.184 318.752 98.688-136.608 133.824-317.6 133.824-317.6s91.872 128.992 116.576 188.896c18.912-38.496 36.288-167.872 36.288-295.872 0 0 84.992 70.016 148.736 175.296 67.136-120.384 91.328-246.24 64.896-351.968zM717.824 358.56l5.952-33.12c13.312-74.176 5.856-161.856-18.944-223.424-2.496-6.24-8.512-10.016-14.816-10.016-2.016 0-4.064 0.384-6.016 1.152-8.192 3.296-12.192 12.608-8.864 20.8 18.688 46.368 26.56 111.648 21.568 171.296-32.128-35.904-72.608-73.312-159.104-114.4l-16.192-7.648-5.824 16.896c-11.584 33.6-23.264 67.552-28.32 114.88-17.312-27.296-33.12-51.616-59.68-87.776l-16.256-22.144-11.264 25.088c-27.552 61.6-48.544 109.696-65.184 152-15.392-49.44-26.88-106.624-26.88-222.112 0-8.832-7.2-16-16-16-8.864 0-16 7.168-16 16 0 150.688 20 208.736 41.12 270.208l16.64 48.32 15.328-43.2c16.48-46.432 38.176-97.6 68.864-166.784 20.224 28.576 33.792 50.080 50.176 76.032l48.576 76.096v-54.688c0-61.568 11.072-101.792 23.264-138.336 85.088 42.816 116.96 80.064 150.656 119.36l27.2 31.52z" />
<glyph unicode="&#xe906;" glyph-name="bulb" d="M512 896c-194.432 0-352-157.568-352-352 0-128.992 118.016-265.696 160.992-385.76 64.096-179.040 56.992-286.24 191.008-286.24 136 0 126.88 106.688 191.008 285.504 43.104 120.32 160.992 258.496 160.992 386.496 0 194.432-157.632 352-352 352zM594.944 26.368l-158.656-19.808c-5.664 16.384-11.744 35.552-19.136 60.576-0.096 0.32-0.224 0.672-0.288 0.992l198.016 24.736c-2.816-9.44-5.824-19.36-8.448-28.256-4.192-14.368-7.936-26.848-11.488-38.24zM407.552 98.944c-5.824 19.264-12.384 39.552-19.68 61.056h248.512c-3.936-11.488-7.872-23.008-11.264-33.888l-217.568-27.168zM512-64c-32.416 0-47.328 3.744-63.904 40l135.616 16.992c-19.648-52.928-33.952-56.992-71.712-56.992zM661.504 224h-298.656c-15.936 34.56-35.072 69.12-53.952 102.944-41.76 74.72-84.896 152-84.896 217.056 0 158.816 129.184 288 288 288s288-129.184 288-288c0-64.576-43.2-142.272-84.992-217.44-18.688-33.696-37.696-68.192-53.504-102.56zM512 736c8.8 0 16-7.168 16-16s-7.168-16-16-16c-88.224 0-160-71.776-160-160 0-8.832-7.168-16-16-16s-16 7.168-16 16c0 105.888 86.112 192 192 192z" />
<glyph unicode="&#xe907;" glyph-name="bug" horiz-adv-x="951" d="M932.571 329.143c0-20-16.571-36.571-36.571-36.571h-128c0-71.429-15.429-125.143-38.286-165.714l118.857-119.429c14.286-14.286 14.286-37.143 0-51.429-6.857-7.429-16.571-10.857-25.714-10.857s-18.857 3.429-25.714 10.857l-113.143 112.571s-74.857-68.571-172-68.571v512h-73.143v-512c-103.429 0-178.857 75.429-178.857 75.429l-104.571-118.286c-7.429-8-17.143-12-27.429-12-8.571 0-17.143 2.857-24.571 9.143-14.857 13.714-16 36.571-2.857 52l115.429 129.714c-20 39.429-33.143 90.286-33.143 156.571h-128c-20 0-36.571 16.571-36.571 36.571s16.571 36.571 36.571 36.571h128v168l-98.857 98.857c-14.286 14.286-14.286 37.143 0 51.429s37.143 14.286 51.429 0l98.857-98.857h482.286l98.857 98.857c14.286 14.286 37.143 14.286 51.429 0s14.286-37.143 0-51.429l-98.857-98.857v-168h128c20 0 36.571-16.571 36.571-36.571zM658.286 658.285h-365.714c0 101.143 81.714 182.857 182.857 182.857s182.857-81.714 182.857-182.857z" />
<glyph unicode="&#xe908;" glyph-name="chevron-down" d="M797.867 541.867c-17.067 17.067-42.667 17.067-59.733 0l-226.133-226.133-226.133 226.133c-17.067 17.067-42.667 17.067-59.733 0s-17.067-42.667 0-59.733l256-256c8.533-8.533 21.333-12.8 29.867-12.8s21.333 4.267 29.867 12.8l256 256c17.067 17.067 17.067 42.667 0 59.733z" />
<glyph unicode="&#xe909;" glyph-name="link" d="M474.112 204.8c-8.559 14.643-13.613 32.239-13.613 51.016 0 19.135 5.248 37.044 14.384 52.366l-0.259-0.469c79.299 6.646 141.144 72.648 141.144 153.094 0 84.831-68.769 153.6-153.6 153.6-0.481 0-0.961-0.002-1.441-0.007l0.073 0.001h-204.8c-84.831 0-153.6-68.769-153.6-153.6s68.769-153.6 153.6-153.6v0h4.096c-2.706-15.393-4.254-33.116-4.254-51.2s1.547-35.807 4.516-53.044l-0.263 1.844h-4.096c-141.385 0-256 114.615-256 256s114.615 256 256 256v0h204.8c1.982 0.055 4.315 0.087 6.656 0.087 141.433 0 256.087-114.654 256.087-256.087 0-139.092-110.89-252.284-249.087-255.993l-0.343-0.007zM549.888 512c8.559-14.643 13.613-32.239 13.613-51.016 0-19.135-5.248-37.044-14.384-52.366l0.259 0.469c-79.299-6.646-141.144-72.648-141.144-153.094 0-84.831 68.769-153.6 153.6-153.6 0.481 0 0.961 0.002 1.441 0.007l-0.073-0.001h204.8c84.831 0 153.6 68.769 153.6 153.6s-68.769 153.6-153.6 153.6v0h-4.096c2.706 15.393 4.254 33.116 4.254 51.2s-1.547 35.807-4.516 53.044l0.263-1.844h4.096c141.385 0 256-114.615 256-256s-114.615-256-256-256v0h-204.8c-1.982-0.055-4.315-0.087-6.656-0.087-141.433 0-256.087 114.654-256.087 256.087 0 139.092 110.89 252.284 249.087 255.993l0.343 0.007z" />
<glyph unicode="&#xe9b9;" glyph-name="list-numbered" d="M384 64h640v-128h-640zM384 448h640v-128h-640zM384 832h640v-128h-640zM192 896v-256h-64v192h-64v64zM128 370v-50h128v-64h-192v146l128 60v50h-128v64h192v-146zM256 192v-320h-192v64h128v64h-128v64h128v64h-128v64z" />
<glyph unicode="&#xe9bb;" glyph-name="list2" d="M384 832h640v-128h-640v128zM384 448h640v-128h-640v128zM384 64h640v-128h-640v128zM0 768c0 70.692 57.308 128 128 128s128-57.308 128-128c0-70.692-57.308-128-128-128s-128 57.308-128 128zM0 384c0 70.692 57.308 128 128 128s128-57.308 128-128c0-70.692-57.308-128-128-128s-128 57.308-128 128zM0 0c0 70.692 57.308 128 128 128s128-57.308 128-128c0-70.692-57.308-128-128-128s-128 57.308-128 128z" />
<glyph unicode="&#xea07;" glyph-name="warning" d="M512 803.226l429.102-855.226h-858.206l429.104 855.226zM512 896c-22.070 0-44.14-14.882-60.884-44.648l-437.074-871.112c-33.486-59.532-5-108.24 63.304-108.24h869.308c68.3 0 96.792 48.708 63.3 108.24h0.002l-437.074 871.112c-16.742 29.766-38.812 44.648-60.882 44.648v0zM576 64c0-35.346-28.654-64-64-64s-64 28.654-64 64c0 35.346 28.654 64 64 64s64-28.654 64-64zM512 192c-35.346 0-64 28.654-64 64v192c0 35.346 28.654 64 64 64s64-28.654 64-64v-192c0-35.346-28.654-64-64-64z" />
<glyph unicode="&#xea09;" glyph-name="question" d="M448 192h128v-128h-128zM704 640c35.346 0 64-28.654 64-64v-192l-192-128h-128v64l192 128v64h-320v128h384zM512 800c-111.118 0-215.584-43.272-294.156-121.844s-121.844-183.038-121.844-294.156c0-111.118 43.272-215.584 121.844-294.156s183.038-121.844 294.156-121.844c111.118 0 215.584 43.272 294.156 121.844s121.844 183.038 121.844 294.156c0 111.118-43.272 215.584-121.844 294.156s-183.038 121.844-294.156 121.844zM512 896v0c282.77 0 512-229.23 512-512s-229.23-512-512-512c-282.77 0-512 229.23-512 512s229.23 512 512 512z" />
<glyph unicode="&#xea0c;" glyph-name="info" d="M448 592c0 26.4 21.6 48 48 48h32c26.4 0 48-21.6 48-48v-32c0-26.4-21.6-48-48-48h-32c-26.4 0-48 21.6-48 48v32zM640 128h-256v64h64v192h-64v64h192v-256h64zM512 896c-282.77 0-512-229.23-512-512s229.23-512 512-512 512 229.23 512 512-229.23 512-512 512zM512-32c-229.75 0-416 186.25-416 416s186.25 416 416 416 416-186.25 416-416-186.25-416-416-416z" />
<glyph unicode="&#xea0f;" glyph-name="cross" d="M1014.662 73.34c-0.004 0.004-0.008 0.008-0.012 0.010l-310.644 310.65 310.644 310.65c0.004 0.004 0.008 0.006 0.012 0.010 3.344 3.346 5.762 7.254 7.312 11.416 4.246 11.376 1.824 24.682-7.324 33.83l-146.746 146.746c-9.148 9.146-22.45 11.566-33.828 7.32-4.16-1.55-8.070-3.968-11.418-7.31 0-0.004-0.004-0.006-0.008-0.010l-310.648-310.652-310.648 310.65c-0.004 0.004-0.006 0.006-0.010 0.010-3.346 3.342-7.254 5.76-11.414 7.31-11.38 4.248-24.682 1.826-33.83-7.32l-146.748-146.748c-9.148-9.148-11.568-22.452-7.322-33.828 1.552-4.16 3.97-8.072 7.312-11.416 0.004-0.002 0.006-0.006 0.010-0.010l310.65-310.648-310.65-310.652c-0.002-0.004-0.006-0.006-0.008-0.010-3.342-3.346-5.76-7.254-7.314-11.414-4.248-11.376-1.826-24.682 7.322-33.83l146.748-146.746c9.15-9.148 22.452-11.568 33.83-7.322 4.16 1.552 8.070 3.97 11.416 7.312 0.002 0.004 0.006 0.006 0.010 0.010l310.648 310.65 310.648-310.65c0.004-0.002 0.008-0.006 0.012-0.008 3.348-3.344 7.254-5.762 11.414-7.314 11.378-4.246 24.684-1.826 33.828 7.322l146.746 146.748c9.148 9.148 11.57 22.454 7.324 33.83-1.552 4.16-3.97 8.068-7.314 11.414z" />
<glyph unicode="&#xea10;" glyph-name="checkmark" d="M864 768l-480-480-224 224-160-160 384-384 640 640z" />
<glyph unicode="warning" glyph-name="warning" d="M512 803.226l429.102-855.226h-858.206l429.104 855.226zM512 896c-22.070 0-44.14-14.882-60.884-44.648l-437.074-871.112c-33.486-59.532-5-108.24 63.304-108.24h869.308c68.3 0 96.792 48.708 63.3 108.24h0.002l-437.074 871.112c-16.742 29.766-38.812 44.648-60.882 44.648v0zM576 64c0-35.346-28.654-64-64-64s-64 28.654-64 64c0 35.346 28.654 64 64 64s64-28.654 64-64zM512 192c-35.346 0-64 28.654-64 64v192c0 35.346 28.654 64 64 64s64-28.654 64-64v-192c0-35.346-28.654-64-64-64z" />
<glyph unicode="todo2" glyph-name="list2" d="M384 832h640v-128h-640v128zM384 448h640v-128h-640v128zM384 64h640v-128h-640v128zM0 768c0 70.692 57.308 128 128 128s128-57.308 128-128c0-70.692-57.308-128-128-128s-128 57.308-128 128zM0 384c0 70.692 57.308 128 128 128s128-57.308 128-128c0-70.692-57.308-128-128-128s-128 57.308-128 128zM0 0c0 70.692 57.308 128 128 128s128-57.308 128-128c0-70.692-57.308-128-128-128s-128 57.308-128 128z" />
<glyph unicode="tick" glyph-name="checkmark" d="M864 768l-480-480-224 224-160-160 384-384 640 640z" />
<glyph unicode="sign" glyph-name="warning" d="M512 803.226l429.102-855.226h-858.206l429.104 855.226zM512 896c-22.070 0-44.14-14.882-60.884-44.648l-437.074-871.112c-33.486-59.532-5-108.24 63.304-108.24h869.308c68.3 0 96.792 48.708 63.3 108.24h0.002l-437.074 871.112c-16.742 29.766-38.812 44.648-60.882 44.648v0zM576 64c0-35.346-28.654-64-64-64s-64 28.654-64 64c0 35.346 28.654 64 64 64s64-28.654 64-64zM512 192c-35.346 0-64 28.654-64 64v192c0 35.346 28.654 64 64 64s64-28.654 64-64v-192c0-35.346-28.654-64-64-64z" />
<glyph unicode="question" glyph-name="question" d="M448 192h128v-128h-128zM704 640c35.346 0 64-28.654 64-64v-192l-192-128h-128v64l192 128v64h-320v128h384zM512 800c-111.118 0-215.584-43.272-294.156-121.844s-121.844-183.038-121.844-294.156c0-111.118 43.272-215.584 121.844-294.156s183.038-121.844 294.156-121.844c111.118 0 215.584 43.272 294.156 121.844s121.844 183.038 121.844 294.156c0 111.118-43.272 215.584-121.844 294.156s-183.038 121.844-294.156 121.844zM512 896v0c282.77 0 512-229.23 512-512s-229.23-512-512-512c-282.77 0-512 229.23-512 512s229.23 512 512 512z" />
<glyph unicode="options" glyph-name="list-numbered" d="M384 64h640v-128h-640zM384 448h640v-128h-640zM384 832h640v-128h-640zM192 896v-256h-64v192h-64v64zM128 370v-50h128v-64h-192v146l128 60v50h-128v64h192v-146zM256 192v-320h-192v64h128v64h-128v64h128v64h-128v64z" />
<glyph unicode="list2" glyph-name="list2" d="M384 832h640v-128h-640v128zM384 448h640v-128h-640v128zM384 64h640v-128h-640v128zM0 768c0 70.692 57.308 128 128 128s128-57.308 128-128c0-70.692-57.308-128-128-128s-128 57.308-128 128zM0 384c0 70.692 57.308 128 128 128s128-57.308 128-128c0-70.692-57.308-128-128-128s-128 57.308-128 128zM0 0c0 70.692 57.308 128 128 128s128-57.308 128-128c0-70.692-57.308-128-128-128s-128 57.308-128 128z" />
<glyph unicode="list-numbered" glyph-name="list-numbered" d="M384 64h640v-128h-640zM384 448h640v-128h-640zM384 832h640v-128h-640zM192 896v-256h-64v192h-64v64zM128 370v-50h128v-64h-192v146l128 60v50h-128v64h192v-146zM256 192v-320h-192v64h128v64h-128v64h128v64h-128v64z" />
<glyph unicode="information" glyph-name="info" d="M448 592c0 26.4 21.6 48 48 48h32c26.4 0 48-21.6 48-48v-32c0-26.4-21.6-48-48-48h-32c-26.4 0-48 21.6-48 48v32zM640 128h-256v64h64v192h-64v64h192v-256h64zM512 896c-282.77 0-512-229.23-512-512s229.23-512 512-512 512 229.23 512 512-229.23 512-512 512zM512-32c-229.75 0-416 186.25-416 416s186.25 416 416 416 416-186.25 416-416-186.25-416-416-416z" />
<glyph unicode="info" glyph-name="info" d="M448 592c0 26.4 21.6 48 48 48h32c26.4 0 48-21.6 48-48v-32c0-26.4-21.6-48-48-48h-32c-26.4 0-48 21.6-48 48v32zM640 128h-256v64h64v192h-64v64h192v-256h64zM512 896c-282.77 0-512-229.23-512-512s229.23-512 512-512 512 229.23 512 512-229.23 512-512 512zM512-32c-229.75 0-416 186.25-416 416s186.25 416 416 416 416-186.25 416-416-186.25-416-416-416z" />
<glyph unicode="help" glyph-name="question" d="M448 192h128v-128h-128zM704 640c35.346 0 64-28.654 64-64v-192l-192-128h-128v64l192 128v64h-320v128h384zM512 800c-111.118 0-215.584-43.272-294.156-121.844s-121.844-183.038-121.844-294.156c0-111.118 43.272-215.584 121.844-294.156s183.038-121.844 294.156-121.844c111.118 0 215.584 43.272 294.156 121.844s121.844 183.038 121.844 294.156c0 111.118-43.272 215.584-121.844 294.156s-183.038 121.844-294.156 121.844zM512 896v0c282.77 0 512-229.23 512-512s-229.23-512-512-512c-282.77 0-512 229.23-512 512s229.23 512 512 512z" />
<glyph unicode="cross" glyph-name="cross" d="M1014.662 73.34c-0.004 0.004-0.008 0.008-0.012 0.010l-310.644 310.65 310.644 310.65c0.004 0.004 0.008 0.006 0.012 0.010 3.344 3.346 5.762 7.254 7.312 11.416 4.246 11.376 1.824 24.682-7.324 33.83l-146.746 146.746c-9.148 9.146-22.45 11.566-33.828 7.32-4.16-1.55-8.070-3.968-11.418-7.31 0-0.004-0.004-0.006-0.008-0.010l-310.648-310.652-310.648 310.65c-0.004 0.004-0.006 0.006-0.010 0.010-3.346 3.342-7.254 5.76-11.414 7.31-11.38 4.248-24.682 1.826-33.83-7.32l-146.748-146.748c-9.148-9.148-11.568-22.452-7.322-33.828 1.552-4.16 3.97-8.072 7.312-11.416 0.004-0.002 0.006-0.006 0.010-0.010l310.65-310.648-310.65-310.652c-0.002-0.004-0.006-0.006-0.008-0.010-3.342-3.346-5.76-7.254-7.314-11.414-4.248-11.376-1.826-24.682 7.322-33.83l146.748-146.746c9.15-9.148 22.452-11.568 33.83-7.322 4.16 1.552 8.070 3.97 11.416 7.312 0.002 0.004 0.006 0.006 0.010 0.010l310.648 310.65 310.648-310.65c0.004-0.002 0.008-0.006 0.012-0.008 3.348-3.344 7.254-5.762 11.414-7.314 11.378-4.246 24.684-1.826 33.828 7.322l146.746 146.748c9.148 9.148 11.57 22.454 7.324 33.83-1.552 4.16-3.97 8.068-7.314 11.414z" />
<glyph unicode="checkmark" glyph-name="checkmark" d="M864 768l-480-480-224 224-160-160 384-384 640 640z" />
<glyph unicode="cancel" glyph-name="cross" d="M1014.662 73.34c-0.004 0.004-0.008 0.008-0.012 0.010l-310.644 310.65 310.644 310.65c0.004 0.004 0.008 0.006 0.012 0.010 3.344 3.346 5.762 7.254 7.312 11.416 4.246 11.376 1.824 24.682-7.324 33.83l-146.746 146.746c-9.148 9.146-22.45 11.566-33.828 7.32-4.16-1.55-8.070-3.968-11.418-7.31 0-0.004-0.004-0.006-0.008-0.010l-310.648-310.652-310.648 310.65c-0.004 0.004-0.006 0.006-0.010 0.010-3.346 3.342-7.254 5.76-11.414 7.31-11.38 4.248-24.682 1.826-33.83-7.32l-146.748-146.748c-9.148-9.148-11.568-22.452-7.322-33.828 1.552-4.16 3.97-8.072 7.312-11.416 0.004-0.002 0.006-0.006 0.010-0.010l310.65-310.648-310.65-310.652c-0.002-0.004-0.006-0.006-0.008-0.010-3.342-3.346-5.76-7.254-7.314-11.414-4.248-11.376-1.826-24.682 7.322-33.83l146.748-146.746c9.15-9.148 22.452-11.568 33.83-7.322 4.16 1.552 8.070 3.97 11.416 7.312 0.002 0.004 0.006 0.006 0.010 0.010l310.648 310.65 310.648-310.65c0.004-0.002 0.008-0.006 0.012-0.008 3.348-3.344 7.254-5.762 11.414-7.314 11.378-4.246 24.684-1.826 33.828 7.322l146.746 146.748c9.148 9.148 11.57 22.454 7.324 33.83-1.552 4.16-3.97 8.068-7.314 11.414z" />
</font>
</defs>
</svg>
